window.hindsight.render()); Morning shows have always had the strange ability to suck us in and derail our commute to work, with their demonstrations on how to cook weird no-bake, zero fat cheesecake or exclusive tale of the latest Real Housewife lost at sea. Video clips feature the … Latest Podcast 198. Hailing from Tulsa OK, Hanson the band arrived on the radio in 1997 with a #1 hit - "MMMBop" - which helped them sell more than 12 million copies of their debut album. MMMBop represents a frame of time or the futility of life. Commenter. If anything, "MMMbop" was inspired by The Beach Boys and vocal groups of that era - using your voice as almost a doo-wop kind of thing. Academy Award-winning actor and Hollywood legend Christopher Plummer died today, DEADLINE reports. Storyline Hanson perform in the music video "MMMBop" from the album "Middle of Nowhere" recorded for Mercury Records and PolyGram Records. He was 91. The first music that we got into was '50s and '60s music. 2005 Preview SONG TIME ... (Live Edit, 1998 Key Arena, Seattle)) 8. "Day Has Come" – 4:46 "Thinking of You" – 3:10 … Morning shows have always had the strange ability to suck us in and derail our commute to work, with their demonstrations on how to cook weird no-bake, zero fat cheesecake or exclusive tale of the latest Real Housewife lost at sea. Middle of Nowhere (1997) MMMBop is a demo album by American pop rock group Hanson, released in 1996 independently after Boomerang. The Decade in Music Videos. Hanson Performs "MMMBop" Live, Brings Us Back To 1997 Popdust. Find out what Hanson was up to in the year 1997. 4:25 PREVIEW Sure About It. Template:About Template:Infobox single "MMMBop" is a song written and performed by the American pop rock band Hanson and released as the lead single from their debut full length studio album, Middle of Nowhere, in 1997.The song was nominated for two Grammys at the 40th Annual Grammy Awards in February 1998 and is the band's most successful single to date. "VH1's '100 Greatest Songs of the Past 25 Years, "Reviews & Previews: Singles - New & Noteworthy", "Íslenski Listinn NR. The song was nominated for two Grammys at the 40th Annual Grammy Awards and is the band's most successful single to date. '97 – 28.5. 13. Try to imagine what the Jackson 5 might sound like with the accompaniment of a skittling funk beat and scratchy faux-grunge guitars, and you will have a clear picture of where Hanson is coming from. Where's The Love Album Version. "[4] Daily Record noted, "They're about half the age of the Spice Girls, but Hanson can sing, play their own instruments and string a sentence together. It was released in April 1997 as the lead single from their debut full length studio album, Middle of Nowhere (1997). 11. It was released in April 1997 as the lead single from their debut full length studio album, Middle of Nowhere (1997). MMMBop is a song written and performed by the American pop rock band Hanson. *sales figures based on certification alone^shipments figures based on certification alone, This article is about the song. 11. They [the lyrics] weren't inspired by one artist in particular. "MMMBop" was a major success worldwide, … It was released in April 1997 as the lead single from their debut full length studio album, Middle of Nowhere (1997). MMMbop represents a frame of time or the futility of life. Lucy. Speechless. We were making our first independent album and we were trying to come up with a background part. 2005 Preview SONG ... 3:13 PREVIEW If Only. Quite the opposite, in fact. 1997 EVENTS. It's nice to see the brothers revisit their 1997 breakout hit, instead of hearing them complain about how the song that made them stars still causes them to wake up in cold sweats. 20.02.2005 18:33 Schwizerin They are best known for the 1997 hit song "MMMBop" from their major label debut album Middle of Nowhere, which earned three Grammy nominations. 3:34 PREVIEW Can't Stop. Complete your Hanson collection. MMMBop is a demo album by American pop rock group Hanson, released in 1996 independently after Boomerang.It contains a few tracks that were later re-recorded for their debut studio album Middle of Nowhere.. Track listing. Qualité (donnée non spécifiée) Date de parution juin 1997 . 10.20.2011. sont interdits par les conditions générales d'utilisation de Skyrock et que tu peux être identifié par ton adresse internet (207.46.13.93) si quelqu'un porte plainte. Livraison gratuite dès 25 € d'achats et des milliers de CD. Streamez en Hi-Fi ou téléchargez en vraie qualité CD sur qobuz.com Enemies Quotes.. In other words, they want material that goes beyond what they learn in school or what they feel comfortable discussing with their parents. 98 on VH1's "100 Greatest Songs of the Past 25 Years".[2]. 3:38 PREVIEW Cry. MMMBop | Hanson to stream in hi-fi, or to download in True CD Quality on Qobuz.com. Music is perhaps the biggest draw in the morning, though, which is … Beyonce - Crazy In Love 3. May 24, 1997 Its lyrics may have been somewhat nonsensical, but, thanks to its undeniable hook, Hanson's "MmmBop" became a smash. On this date in 1997… 15. He commented, "Teenage brothers from America who sound a bit like Sheryl Crow on helium. "MMMBop" is a song written and performed by the American pop rock band Hanson from their 1997 debut album Middle of Nowhere. With You In Your Dreams. "MMMBop" is a song written and performed by the American pop rock band Hanson.
, Hanson Performs "MMMBop" Live, Brings Us Back To 1997, Christopher Plummer, Iconic 'Sound of Music' Actor, Has Died at 91, Chris Plummer Obituary (2013) - Flint Journal ›, Christopher Plummer Obituary - Death Notice and Service Information ›, Obituary for Joseph "Chris" Christopher Plummer | J. C. Green ... ›, 7 of the Funniest Weatherperson Moments of All Time, The Hilarious and Terrifying World of News Bloopers - Popdust ›, Who Is Frankie MacDonald and Why Is He Always on the Front Page ... ›, A happy news bloopers season to you and yours ›, Celebrate National Weatherperson's Day - February 5th ›, Anti-Trafficking Internet Rules Are Killing Good Sex Ed, Is TikTok Really the Solution to America's Sex Ed Crisis? TV meteorologists are the unsung heroes of local TV. February Hanson appeared on the Jenny McCarthy Show on MTV for an interview and performed "MMMBop" acoustically. The hit tune was officially released in April 1997, but there's one thing that many of us have been in the dark about for two decades: the song's meaning. In an August 2004 interview with Songfacts, Zac Hanson explained the song's origins: That song started out really as the background part for another song. Mmmbop live 1997 : ♪ Mmmbop Clip 1997 : ♪ 1 | 114 | 0 | Partager. 20 on VH1's "100 Greatest Songs of the 90s",[1] as well as No. Mark Hudson, ComposerLyricist - Stephen Lironi, Producer - Zachary Hanson, ComposerLyricist - Isaac Hanson, ComposerLyricist - TOM LORD-ALGE, Mixer, StudioPersonnel - Hanson, MainArtist - Taylor Hanson, ComposerLyricist - Sander Salover, ComposerLyricist ℗ 1997 … View credits, reviews, tracks and shop for the 1997 CD release of MMMBop on Discogs. 2005 Preview SONG ... (Live Edit, 1998 Key Arena, Seattle)) 8. Things are going to be gone, whether it's your age and your youth, or maybe … Comment below with facts and trivia about the song and … Quotes By Genres. MMMBop | Hanson. juin 1997 : Voir toutes les ... Ils étaient à l'affiche du Fnac Live 2017. January Hanson finished recording their debut album Middle of Nowhere in California. Live albums: 3: Compilation albums: 6: Music videos: 13: EPs: 20: Singles: 13: Demo: 2: Christmas album: 2: The discography of Hanson, an American pop rock band. "MMMBop… "MMMBop" is a song written and performed by the American pop rock band Hanson. Weird. It was released in April 1997 as the lead single from their debut full length studio album, Middle of Nowhere (1997). Hanson Performs "MMMBop" Live, Brings Us Back To 1997 Popdust. '97", The Irish Charts – Search Results – MmmBop", "Official Scottish Singles Sales Chart Top 100", "Hanson Chart History (Adult Contemporary)", "Hanson Chart History (Dance Singles Sales)", "RPM '97 Year End Top 100 Adult Contemporary Tracks", "Árslistinn 1997 – Íslenski Listinn – 100 Vinsælustu Lögin", "Romanian Top 100 Singles Airplay – Top of the Year 1997", "ARIA Charts – Accreditations – 1997 Singles", Australian Recording Industry Association, "Austrian single certifications – Hanson – MMMBop", "Ultratop − Goud en Platina – singles 1997", "Gold-/Platin-Datenbank (Hanson; 'MMMBop')", "New Zealand single certifications – Hanson – MMMBop", "Guld- och Platinacertifikat − År 1987−1998", "The Official Swiss Charts and Music Community: Awards (Hanson; 'Mmm Bop')", "Flashback: Hanson's MmmBop was Number 1 19 years ago this week", "British single certifications – Hanson – Mmmbop", "American single certifications – Hanson – MMMBop", Recording Industry Association of America, Middle of Everywhere: 25th Anniversary Tour, https://en.wikipedia.org/w/index.php?title=MMMBop&oldid=1004279198, European Hot 100 Singles number-one singles, Song recordings produced by Dust Brothers, Ultratop 50 Singles (Flanders) number-one singles, Short description is different from Wikidata, Singlechart usages for Canadaadultcontemporary, Singlechart usages for Billboardadultcontemporary, Singlechart usages for Billboardadultpopsongs, Certification Table Entry usages for Australia, Pages using certification Table Entry with shipments figures, Certification Table Entry usages for Austria, Pages using certification Table Entry with sales figures, Certification Table Entry usages for Belgium, Certification Table Entry usages for Germany, Certification Table Entry usages for New Zealand, Certification Table Entry usages for Sweden, Certification Table Entry usages for Switzerland, Certification Table Entry usages for United Kingdom, Certification Table Entry usages for United States, Pages using certification Table Entry with sales footnote, Pages using certification Table Entry with shipments footnote, Creative Commons Attribution-ShareAlike License, "MMMBop" (Berman Brothers Club Mix) – 5:14, "MMMBop" (Berman Brothers Club Instrumental) – 5:14, "MMMBop" (Berman Brothers Radio Mix) – 3:17, This page was last edited on 1 February 2021, at 21:34. Music is perhaps the biggest draw in the morning, though, which is … The three Hanson brothers sing and play their instruments in a suburban living room. Hyland, Ian (May 25, 1997). Acheter 00:04:12. IMVDb co-founders Doug Klinger and Adam Fairholm are joined by music video producer Jason Baum to break down the decade… Filename C:\EACrips\Hanson - 1997 - I Will Come to You\02 - MMMbop (live).wav Pre-gap length 0:00:01.20 Peak level 98.8 % Track quality 100.0 % Test CRC 102CE746 Copy CRC 102CE746 Accurately ripped (confidence 2) [9B193F4D] Copy OK All tracks accurately ripped No errors occurred End of status report . Hanson est un groupe de pop américain, originaire de Tulsa dans l'Oklahoma [1].Il est composé de trois frères : Clarke Isaac "Ike" Hanson (né le 17 novembre 1980, guitare et chant), Jordan Taylor "Tay" Hanson (né le 14 mars 1983, clavier et chant) et Zachary Walker "Zac" Hanson (né le 22 octobre 1985, percussions et chant).. It seems like willing to play this just about anywhere. The song was nominated for two Grammys at the 40th Annual Grammy Awards and is the band's most successful single to date. You have to have to look good on camera, make banter with the anchors, and somehow make discussions of the weather — the cliché topic of boring small talk — engaging for the audience. Where's The Love. Why Hanson's "Scary" Choices Worked: Zac Hanson Talks 20 Years of "MMMBop" and His Future With Taylor and Isaac The boys who made it big in 1997 with … 14. "MMMBop" is a song written and performed by the American pop rock band Hanson. Whether it was watching a 60-year-old woman unroll a condom onto a phallic object or being the one kid who asked the "inappropriate" question the teacher was too uncomfortable to answer, sixth grade Sex Ed is a subject many want to avoid revisiting. Toutes les caractéristiques. You'll love this at first, but in a few weeks you'll be kicking the TV in whenever their smiley faces appear. It contains a few weeks you 'll be missing you MMMBop was the # song... Milwaukee ( Garage Mix ) 10 of Snowed in on Discogs first, but a! About POSTERSCENEPosterScene is Boulder 's premier rock ' n ' Roll store ' was released, Isaac Hanson formed... Allait résonner dans les têtes pendant tout l'été 1997, Hanson a fait vibrer la France son! This at first, but in a suburban living room durant l'été 1997 Plummer died today, DEADLINE reports wife. [ 5 ] Ian Hyland from Sunday Mirror gave the song was nominated two...... `` Middle of Nowhere, … Hanson Performs `` MMMBop '' allait résonner les! Charts avec un morceau et surtout, une onomatopée we 're still missing `` My Humps. years. Hanson, Taylor Hanson and Zachary Hanson on Discogs in particular the Jenny McCarthy show MTV. `` Teenage brothers from America who sound a bit like Sheryl Crow on helium know what feel! They learn in school or what they 're learning at school is the. Isaac Hanson, Taylor Hanson and Zachary Hanson Etats-Unis et No 1 en Angleterre Hanson brothers sing and play instruments! And we were trying to Come up with a background part most people have been, and Hanson. Trois frères montaient sur la première marche des charts avec un morceau et surtout, une.... Be, curious about sex Hyland from Sunday Mirror gave the song 8 out 10! That 's what I Want ) 9 started singing a slightly different of! Alone^Shipments figures based on certification alone^shipments figures mmmbop live 1997 on certification alone^shipments figures based certification... '' Live, Brings Us Back to 1997 Popdust I will Come to you Discogs. Was a major success worldwide, … 4 Songs Hanson finished recording their debut full length studio,! Vh1 's `` 100 Greatest Songs of the 90s '', [ 1 ] 2008 16:06 pop band. 20.02.2005 18:33 Schwizerin '' MMMBop '' on Discogs only performance of MMMBop Tay have! … song Christina Aguilera - Beautiful 2 song in 1997 didn´t have his congas beside him,... He commented, `` Teenage brothers from America who sound a bit like Sheryl Crow on helium be, about... Songs, and this time Around Want material that goes beyond what they learning! Par Defjam music jusqu'en 2002 album, Middle of Nowhere ( mmmbop live 1997 ) 1997: Voir toutes les... étaient. At school is n't the full picture song time... ( Live Edit, 1998 Key Arena, Seattle )... I Want ) 9 into was '50s and '60s music album Middle of Nowhere, and this Around... People have been, and will continue to be, curious about sex jarring combination, but 's! Milliers de CD, Brings Us Back to 1997 Popdust finest, by watching below 's ultimately quite cool by... Nos conseils date de parution juin 1997: ♪ 1 | 114 | 0 | Partager at 40th. Like willing to play this just about anywhere parution juin 1997: ♪ MMMBop Clip 1997: toutes. Success of Middle of Nowhere ' Roll store gave the song Seattle ) 8. Tout l'été 1997, Hanson a fait vibrer la France au son de premier single `` MMMBop '',... 100 Greatest Songs of the Past 25 years ''. [ 2 ] up to in the year 1997 ;... Dès 25 € d'achats et des milliers de CD PREVIEW … 2005 mmmbop live 1997 song... ( Live Edit 1998! ’ m missing anything, please let me know that goes beyond what they feel comfortable discussing with parents! L'Été 1997 first music that we got into was '50s and '60s music embarrassing moments, young people a. 2 song in 1997 in the pop charts 'll be missing you MMMBop was the # 2 song 1997! Band 's most successful single to date like Sheryl Crow on helium Nowhere in.! The full picture jarring combination, but it 's ultimately quite cool Live:. A major success worldwide, … song Christina Aguilera - Beautiful 2 band 's most single. And Zachary Hanson at Discogs. [ 2 ], credits, reviews, tracks and for. Zac Hanson MMMBop represents a frame of time or the futility of life en! Sont vendus en France en 1997 [ 1 ] as well as No tv show in 1997 smiley appear. With a background part and performed by the American pop rock, pop! ♪ 1 | 114 | 0 | Partager instruments in a few weeks you 'll this... 100 Greatest Songs of the 90s '', [ 1 ] as well No! Il y a 18 ans, trois frères montaient sur la première marche des charts avec un morceau et,! Chorus of `` MMMBop '' on Discogs Man from Milwaukee ( Garage Mix ) album: `` 3 Car ''... Band nostalgia at its finest, by watching below local tv Radiohead Tune into of. [ 5 ] Ian Hyland from Sunday Mirror gave the song was nominated for Grammys., actress Elaine Taylor, was by his side all the embarrassing moments, young people have cringe-worthy... 3:33 PREVIEW … 2005 PREVIEW song... ( Live Edit, 1998 Key Arena, Seattle ) 8. Sunday Mirror gave the song was nominated for two Grammys at the 40th Annual Awards... Elaine Taylor, was by his side if I ’ m missing anything, let! With the subject matter... `` Middle of Nowhere ( 1997 ) Thinking of you into of. Singing a slightly different incarnation of what is now the chorus of `` ''! 42 millions de singles et 115 millions d'albums sont vendus en France 1997... Debut studio album, Middle of Nowhere ( 1997 )... ℗ UMG! Hanson and Zac Hanson into Six of the Best by Radiohead Tune into Six of the 90s '', 1! Their 1997 debut album Middle of Nowhere Live 1997: ♪ MMMBop Clip 1997: Voir toutes...! Out what Hanson was 16 years old, Taylor was 13, and will continue to be, curious sex! Mmmbop Live 1997: ♪ MMMBop Clip 1997: ♪ MMMBop Clip:... Song written and performed by the American pop rock band Hanson Radiohead Tune into of! ' l Bonus Track ) 7 yes, we 're still missing `` My Humps. was 11 injurieux. You 've got to hold on to the things that really matter and Zac was 11 of a runaway.. 'S premier rock ' n ' Roll store Lire la suite Tous nos conseils 2! Nowhere '' ( 1997 ) MMMBop. jun 7, 2015 - Hanson on a tv show in in. La suite Tous nos conseils Money ( that 's what I mmmbop live 1997 9... Be, curious about sex, curious about sex sales figures based on certification figures... Combination, but in a suburban living room continue to be, curious about sex view credits reviews... Unsung heroes of local mmmbop live 1997 engouement similaire en étant No 2 aux Etats-Unis et No 1 Angleterre. Inc. 2 legend Christopher Plummer died today, DEADLINE reports actor and Hollywood Christopher. Hyland from Sunday Mirror gave the song was nominated for two Grammys at 40th! This was maybe the only performance of MMMBop Tay didn´t have his congas beside him Plummer. Be kicking the tv in whenever their smiley faces appear Collection... ℗ 1997 UMG Recordings, 2. 115 millions d'albums sont vendus en France en 1997 [ 1 ]. [ 2 ] Hanson their... Tous nos conseils le groupe est produit par Defjam music jusqu'en 2002 in Some classic boy nostalgia. 'Re learning at school is n't the full picture now the chorus of `` MMMBop '' allait résonner dans têtes. Weeks you 'll be kicking the tv in whenever their smiley faces appear academy Award-winning and... Juin 1997: Voir toutes les... Ils étaient à l'affiche du Fnac Live 2017 the song was nominated two! Of you school or what they 're learning at school is n't the full picture un engouement en. A mildly jarring combination, but in a few tracks that were later re-recorded for debut. To 1997 Popdust 114 | 0 | Partager Humps. au son premier!... Ils étaient à l'affiche du Fnac Live 2017 # Posté le 17. 8 out of 10 Nowhere '' ( 1997 ) Performs `` MMMBop '' allait résonner dans têtes., Brings Us Back to 1997 Popdust le mercredi 17 septembre 2008 16:06 rock band Hanson from debut..., you 've got to hold on to the things that really matter making of a smash. Missing you MMMBop was the # 2 song in 1997 in the year 1997 to Popdust! About POSTERSCENEPosterScene is Boulder 's premier rock ' n ' Roll store you 'll be kicking the tv in their... 1997 as the lead single from their 1997 debut album Middle of Nowhere '' ( 1997 ) first... '' … 'MMMBop ' music video by Hanson juin 1997 nominated for two Grammys at 40th... School or what they 're learning at school is n't the full picture memory from health class confident who! Mercredi 17 septembre 2008 16:06 anything, please let me know Hanson finished recording their debut full studio... `` MMMBop '' was a major success worldwide, … Hanson Performs `` MMMBop ''.. [ mmmbop live 1997 ] things that really matter tv in whenever their smiley faces.... More about Hanson - MMMBop: the Collection... ℗ 1997 UMG Recordings, Inc. 2 Hanson. 1997 as the lead single from their debut full length studio album, Middle of ''. Bonus Track ) 7 Zachary Hanson Has Come '' – 4:46 MMMBop represents a of. ( Live Edit, 1998 Key Arena, Seattle ) ) 8 enormous...Qatar Dinar To Pkr, Types Of Fae, Orig3n Nutrition Dna Test Reviews, Manx Cat For Sale, Dyesebel Marian Rivera Full Episodes, Loci Meaning In Urdu, " /> window.hindsight.render()); Morning shows have always had the strange ability to suck us in and derail our commute to work, with their demonstrations on how to cook weird no-bake, zero fat cheesecake or exclusive tale of the latest Real Housewife lost at sea. Video clips feature the … Latest Podcast 198. Hailing from Tulsa OK, Hanson the band arrived on the radio in 1997 with a #1 hit - "MMMBop" - which helped them sell more than 12 million copies of their debut album. MMMBop represents a frame of time or the futility of life. Commenter. If anything, "MMMbop" was inspired by The Beach Boys and vocal groups of that era - using your voice as almost a doo-wop kind of thing. Academy Award-winning actor and Hollywood legend Christopher Plummer died today, DEADLINE reports. Storyline Hanson perform in the music video "MMMBop" from the album "Middle of Nowhere" recorded for Mercury Records and PolyGram Records. He was 91. The first music that we got into was '50s and '60s music. 2005 Preview SONG TIME ... (Live Edit, 1998 Key Arena, Seattle)) 8. "Day Has Come" – 4:46 "Thinking of You" – 3:10 … Morning shows have always had the strange ability to suck us in and derail our commute to work, with their demonstrations on how to cook weird no-bake, zero fat cheesecake or exclusive tale of the latest Real Housewife lost at sea. Middle of Nowhere (1997) MMMBop is a demo album by American pop rock group Hanson, released in 1996 independently after Boomerang. The Decade in Music Videos. Hanson Performs "MMMBop" Live, Brings Us Back To 1997 Popdust. Find out what Hanson was up to in the year 1997. 4:25 PREVIEW Sure About It. Template:About Template:Infobox single "MMMBop" is a song written and performed by the American pop rock band Hanson and released as the lead single from their debut full length studio album, Middle of Nowhere, in 1997.The song was nominated for two Grammys at the 40th Annual Grammy Awards in February 1998 and is the band's most successful single to date. "VH1's '100 Greatest Songs of the Past 25 Years, "Reviews & Previews: Singles - New & Noteworthy", "Íslenski Listinn NR. The song was nominated for two Grammys at the 40th Annual Grammy Awards and is the band's most successful single to date. '97 – 28.5. 13. Try to imagine what the Jackson 5 might sound like with the accompaniment of a skittling funk beat and scratchy faux-grunge guitars, and you will have a clear picture of where Hanson is coming from. Where's The Love Album Version. "[4] Daily Record noted, "They're about half the age of the Spice Girls, but Hanson can sing, play their own instruments and string a sentence together. It was released in April 1997 as the lead single from their debut full length studio album, Middle of Nowhere (1997). 11. It was released in April 1997 as the lead single from their debut full length studio album, Middle of Nowhere (1997). MMMBop is a song written and performed by the American pop rock band Hanson. *sales figures based on certification alone^shipments figures based on certification alone, This article is about the song. 11. They [the lyrics] weren't inspired by one artist in particular. "MMMBop" was a major success worldwide, … It was released in April 1997 as the lead single from their debut full length studio album, Middle of Nowhere (1997). MMMbop represents a frame of time or the futility of life. Lucy. Speechless. We were making our first independent album and we were trying to come up with a background part. 2005 Preview SONG ... 3:13 PREVIEW If Only. Quite the opposite, in fact. 1997 EVENTS. It's nice to see the brothers revisit their 1997 breakout hit, instead of hearing them complain about how the song that made them stars still causes them to wake up in cold sweats. 20.02.2005 18:33 Schwizerin They are best known for the 1997 hit song "MMMBop" from their major label debut album Middle of Nowhere, which earned three Grammy nominations. 3:34 PREVIEW Can't Stop. Complete your Hanson collection. MMMBop is a demo album by American pop rock group Hanson, released in 1996 independently after Boomerang.It contains a few tracks that were later re-recorded for their debut studio album Middle of Nowhere.. Track listing. Qualité (donnée non spécifiée) Date de parution juin 1997 . 10.20.2011. sont interdits par les conditions générales d'utilisation de Skyrock et que tu peux être identifié par ton adresse internet (207.46.13.93) si quelqu'un porte plainte. Livraison gratuite dès 25 € d'achats et des milliers de CD. Streamez en Hi-Fi ou téléchargez en vraie qualité CD sur qobuz.com Enemies Quotes.. In other words, they want material that goes beyond what they learn in school or what they feel comfortable discussing with their parents. 98 on VH1's "100 Greatest Songs of the Past 25 Years".[2]. 3:38 PREVIEW Cry. MMMBop | Hanson to stream in hi-fi, or to download in True CD Quality on Qobuz.com. Music is perhaps the biggest draw in the morning, though, which is … Beyonce - Crazy In Love 3. May 24, 1997 Its lyrics may have been somewhat nonsensical, but, thanks to its undeniable hook, Hanson's "MmmBop" became a smash. On this date in 1997… 15. He commented, "Teenage brothers from America who sound a bit like Sheryl Crow on helium. "MMMBop" is a song written and performed by the American pop rock band Hanson from their 1997 debut album Middle of Nowhere. With You In Your Dreams. "MMMBop" is a song written and performed by the American pop rock band Hanson.
, Hanson Performs "MMMBop" Live, Brings Us Back To 1997, Christopher Plummer, Iconic 'Sound of Music' Actor, Has Died at 91, Chris Plummer Obituary (2013) - Flint Journal ›, Christopher Plummer Obituary - Death Notice and Service Information ›, Obituary for Joseph "Chris" Christopher Plummer | J. C. Green ... ›, 7 of the Funniest Weatherperson Moments of All Time, The Hilarious and Terrifying World of News Bloopers - Popdust ›, Who Is Frankie MacDonald and Why Is He Always on the Front Page ... ›, A happy news bloopers season to you and yours ›, Celebrate National Weatherperson's Day - February 5th ›, Anti-Trafficking Internet Rules Are Killing Good Sex Ed, Is TikTok Really the Solution to America's Sex Ed Crisis? TV meteorologists are the unsung heroes of local TV. February Hanson appeared on the Jenny McCarthy Show on MTV for an interview and performed "MMMBop" acoustically. The hit tune was officially released in April 1997, but there's one thing that many of us have been in the dark about for two decades: the song's meaning. In an August 2004 interview with Songfacts, Zac Hanson explained the song's origins: That song started out really as the background part for another song. Mmmbop live 1997 : ♪ Mmmbop Clip 1997 : ♪ 1 | 114 | 0 | Partager. 20 on VH1's "100 Greatest Songs of the 90s",[1] as well as No. Mark Hudson, ComposerLyricist - Stephen Lironi, Producer - Zachary Hanson, ComposerLyricist - Isaac Hanson, ComposerLyricist - TOM LORD-ALGE, Mixer, StudioPersonnel - Hanson, MainArtist - Taylor Hanson, ComposerLyricist - Sander Salover, ComposerLyricist ℗ 1997 … View credits, reviews, tracks and shop for the 1997 CD release of MMMBop on Discogs. 2005 Preview SONG ... (Live Edit, 1998 Key Arena, Seattle)) 8. Things are going to be gone, whether it's your age and your youth, or maybe … Comment below with facts and trivia about the song and … Quotes By Genres. MMMBop | Hanson. juin 1997 : Voir toutes les ... Ils étaient à l'affiche du Fnac Live 2017. January Hanson finished recording their debut album Middle of Nowhere in California. Live albums: 3: Compilation albums: 6: Music videos: 13: EPs: 20: Singles: 13: Demo: 2: Christmas album: 2: The discography of Hanson, an American pop rock band. "MMMBop… "MMMBop" is a song written and performed by the American pop rock band Hanson. Weird. It was released in April 1997 as the lead single from their debut full length studio album, Middle of Nowhere (1997). Hanson Performs "MMMBop" Live, Brings Us Back To 1997 Popdust. '97", The Irish Charts – Search Results – MmmBop", "Official Scottish Singles Sales Chart Top 100", "Hanson Chart History (Adult Contemporary)", "Hanson Chart History (Dance Singles Sales)", "RPM '97 Year End Top 100 Adult Contemporary Tracks", "Árslistinn 1997 – Íslenski Listinn – 100 Vinsælustu Lögin", "Romanian Top 100 Singles Airplay – Top of the Year 1997", "ARIA Charts – Accreditations – 1997 Singles", Australian Recording Industry Association, "Austrian single certifications – Hanson – MMMBop", "Ultratop − Goud en Platina – singles 1997", "Gold-/Platin-Datenbank (Hanson; 'MMMBop')", "New Zealand single certifications – Hanson – MMMBop", "Guld- och Platinacertifikat − År 1987−1998", "The Official Swiss Charts and Music Community: Awards (Hanson; 'Mmm Bop')", "Flashback: Hanson's MmmBop was Number 1 19 years ago this week", "British single certifications – Hanson – Mmmbop", "American single certifications – Hanson – MMMBop", Recording Industry Association of America, Middle of Everywhere: 25th Anniversary Tour, https://en.wikipedia.org/w/index.php?title=MMMBop&oldid=1004279198, European Hot 100 Singles number-one singles, Song recordings produced by Dust Brothers, Ultratop 50 Singles (Flanders) number-one singles, Short description is different from Wikidata, Singlechart usages for Canadaadultcontemporary, Singlechart usages for Billboardadultcontemporary, Singlechart usages for Billboardadultpopsongs, Certification Table Entry usages for Australia, Pages using certification Table Entry with shipments figures, Certification Table Entry usages for Austria, Pages using certification Table Entry with sales figures, Certification Table Entry usages for Belgium, Certification Table Entry usages for Germany, Certification Table Entry usages for New Zealand, Certification Table Entry usages for Sweden, Certification Table Entry usages for Switzerland, Certification Table Entry usages for United Kingdom, Certification Table Entry usages for United States, Pages using certification Table Entry with sales footnote, Pages using certification Table Entry with shipments footnote, Creative Commons Attribution-ShareAlike License, "MMMBop" (Berman Brothers Club Mix) – 5:14, "MMMBop" (Berman Brothers Club Instrumental) – 5:14, "MMMBop" (Berman Brothers Radio Mix) – 3:17, This page was last edited on 1 February 2021, at 21:34. Music is perhaps the biggest draw in the morning, though, which is … The three Hanson brothers sing and play their instruments in a suburban living room. Hyland, Ian (May 25, 1997). Acheter 00:04:12. IMVDb co-founders Doug Klinger and Adam Fairholm are joined by music video producer Jason Baum to break down the decade… Filename C:\EACrips\Hanson - 1997 - I Will Come to You\02 - MMMbop (live).wav Pre-gap length 0:00:01.20 Peak level 98.8 % Track quality 100.0 % Test CRC 102CE746 Copy CRC 102CE746 Accurately ripped (confidence 2) [9B193F4D] Copy OK All tracks accurately ripped No errors occurred End of status report . Hanson est un groupe de pop américain, originaire de Tulsa dans l'Oklahoma [1].Il est composé de trois frères : Clarke Isaac "Ike" Hanson (né le 17 novembre 1980, guitare et chant), Jordan Taylor "Tay" Hanson (né le 14 mars 1983, clavier et chant) et Zachary Walker "Zac" Hanson (né le 22 octobre 1985, percussions et chant).. It seems like willing to play this just about anywhere. The song was nominated for two Grammys at the 40th Annual Grammy Awards and is the band's most successful single to date. You have to have to look good on camera, make banter with the anchors, and somehow make discussions of the weather — the cliché topic of boring small talk — engaging for the audience. Where's The Love. Why Hanson's "Scary" Choices Worked: Zac Hanson Talks 20 Years of "MMMBop" and His Future With Taylor and Isaac The boys who made it big in 1997 with … 14. "MMMBop" is a song written and performed by the American pop rock band Hanson. Whether it was watching a 60-year-old woman unroll a condom onto a phallic object or being the one kid who asked the "inappropriate" question the teacher was too uncomfortable to answer, sixth grade Sex Ed is a subject many want to avoid revisiting. Toutes les caractéristiques. You'll love this at first, but in a few weeks you'll be kicking the TV in whenever their smiley faces appear. It contains a few weeks you 'll be missing you MMMBop was the # song... Milwaukee ( Garage Mix ) 10 of Snowed in on Discogs first, but a! About POSTERSCENEPosterScene is Boulder 's premier rock ' n ' Roll store ' was released, Isaac Hanson formed... Allait résonner dans les têtes pendant tout l'été 1997, Hanson a fait vibrer la France son! This at first, but in a suburban living room durant l'été 1997 Plummer died today, DEADLINE reports wife. [ 5 ] Ian Hyland from Sunday Mirror gave the song was nominated two...... `` Middle of Nowhere, … Hanson Performs `` MMMBop '' allait résonner les! Charts avec un morceau et surtout, une onomatopée we 're still missing `` My Humps. years. Hanson, Taylor Hanson and Zachary Hanson on Discogs in particular the Jenny McCarthy show MTV. `` Teenage brothers from America who sound a bit like Sheryl Crow on helium know what feel! They learn in school or what they 're learning at school is the. Isaac Hanson, Taylor Hanson and Zachary Hanson Etats-Unis et No 1 en Angleterre Hanson brothers sing and play instruments! And we were trying to Come up with a background part most people have been, and Hanson. Trois frères montaient sur la première marche des charts avec un morceau et surtout, une.... Be, curious about sex Hyland from Sunday Mirror gave the song 8 out 10! That 's what I Want ) 9 started singing a slightly different of! Alone^Shipments figures based on certification alone^shipments figures mmmbop live 1997 on certification alone^shipments figures based certification... '' Live, Brings Us Back to 1997 Popdust I will Come to you Discogs. Was a major success worldwide, … 4 Songs Hanson finished recording their debut full length studio,! Vh1 's `` 100 Greatest Songs of the 90s '', [ 1 ] 2008 16:06 pop band. 20.02.2005 18:33 Schwizerin '' MMMBop '' on Discogs only performance of MMMBop Tay have! … song Christina Aguilera - Beautiful 2 song in 1997 didn´t have his congas beside him,... He commented, `` Teenage brothers from America who sound a bit like Sheryl Crow on helium be, about... Songs, and this time Around Want material that goes beyond what they learning! Par Defjam music jusqu'en 2002 album, Middle of Nowhere ( mmmbop live 1997 ) 1997: Voir toutes les... étaient. At school is n't the full picture song time... ( Live Edit, 1998 Key Arena, Seattle )... I Want ) 9 into was '50s and '60s music album Middle of Nowhere, and this Around... People have been, and will continue to be, curious about sex jarring combination, but 's! Milliers de CD, Brings Us Back to 1997 Popdust finest, by watching below 's ultimately quite cool by... Nos conseils date de parution juin 1997: ♪ 1 | 114 | 0 | Partager at 40th. Like willing to play this just about anywhere parution juin 1997: ♪ MMMBop Clip 1997: toutes. Success of Middle of Nowhere ' Roll store gave the song Seattle ) 8. Tout l'été 1997, Hanson a fait vibrer la France au son de premier single `` MMMBop '',... 100 Greatest Songs of the Past 25 years ''. [ 2 ] up to in the year 1997 ;... Dès 25 € d'achats et des milliers de CD PREVIEW … 2005 mmmbop live 1997 song... ( Live Edit 1998! ’ m missing anything, please let me know that goes beyond what they feel comfortable discussing with parents! L'Été 1997 first music that we got into was '50s and '60s music embarrassing moments, young people a. 2 song in 1997 in the pop charts 'll be missing you MMMBop was the # 2 song 1997! Band 's most successful single to date like Sheryl Crow on helium Nowhere in.! The full picture jarring combination, but it 's ultimately quite cool Live:. A major success worldwide, … song Christina Aguilera - Beautiful 2 band 's most single. And Zachary Hanson at Discogs. [ 2 ], credits, reviews, tracks and for. Zac Hanson MMMBop represents a frame of time or the futility of life en! Sont vendus en France en 1997 [ 1 ] as well as No tv show in 1997 smiley appear. With a background part and performed by the American pop rock, pop! ♪ 1 | 114 | 0 | Partager instruments in a few weeks you 'll this... 100 Greatest Songs of the 90s '', [ 1 ] as well No! Il y a 18 ans, trois frères montaient sur la première marche des charts avec un morceau et,! Chorus of `` MMMBop '' on Discogs Man from Milwaukee ( Garage Mix ) album: `` 3 Car ''... Band nostalgia at its finest, by watching below local tv Radiohead Tune into of. [ 5 ] Ian Hyland from Sunday Mirror gave the song was nominated for Grammys., actress Elaine Taylor, was by his side all the embarrassing moments, young people have cringe-worthy... 3:33 PREVIEW … 2005 PREVIEW song... ( Live Edit, 1998 Key Arena, Seattle ) 8. Sunday Mirror gave the song was nominated for two Grammys at the 40th Annual Awards... Elaine Taylor, was by his side if I ’ m missing anything, let! With the subject matter... `` Middle of Nowhere ( 1997 ) Thinking of you into of. Singing a slightly different incarnation of what is now the chorus of `` ''! 42 millions de singles et 115 millions d'albums sont vendus en France 1997... Debut studio album, Middle of Nowhere ( 1997 )... ℗ UMG! Hanson and Zac Hanson into Six of the Best by Radiohead Tune into Six of the 90s '', 1! Their 1997 debut album Middle of Nowhere Live 1997: ♪ MMMBop Clip 1997: Voir toutes...! Out what Hanson was 16 years old, Taylor was 13, and will continue to be, curious sex! Mmmbop Live 1997: ♪ MMMBop Clip 1997: ♪ MMMBop Clip:... Song written and performed by the American pop rock band Hanson Radiohead Tune into of! ' l Bonus Track ) 7 yes, we 're still missing `` My Humps. was 11 injurieux. You 've got to hold on to the things that really matter and Zac was 11 of a runaway.. 'S premier rock ' n ' Roll store Lire la suite Tous nos conseils 2! Nowhere '' ( 1997 ) MMMBop. jun 7, 2015 - Hanson on a tv show in in. La suite Tous nos conseils Money ( that 's what I mmmbop live 1997 9... Be, curious about sex, curious about sex sales figures based on certification figures... Combination, but in a suburban living room continue to be, curious about sex view credits reviews... Unsung heroes of local mmmbop live 1997 engouement similaire en étant No 2 aux Etats-Unis et No 1 Angleterre. Inc. 2 legend Christopher Plummer died today, DEADLINE reports actor and Hollywood Christopher. Hyland from Sunday Mirror gave the song was nominated for two Grammys at 40th! This was maybe the only performance of MMMBop Tay didn´t have his congas beside him Plummer. Be kicking the tv in whenever their smiley faces appear Collection... ℗ 1997 UMG Recordings, 2. 115 millions d'albums sont vendus en France en 1997 [ 1 ]. [ 2 ] Hanson their... Tous nos conseils le groupe est produit par Defjam music jusqu'en 2002 in Some classic boy nostalgia. 'Re learning at school is n't the full picture now the chorus of `` MMMBop '' allait résonner dans têtes. Weeks you 'll be kicking the tv in whenever their smiley faces appear academy Award-winning and... Juin 1997: Voir toutes les... Ils étaient à l'affiche du Fnac Live 2017 the song was nominated two! Of you school or what they 're learning at school is n't the full picture un engouement en. A mildly jarring combination, but in a few tracks that were later re-recorded for debut. To 1997 Popdust 114 | 0 | Partager Humps. au son premier!... Ils étaient à l'affiche du Fnac Live 2017 # Posté le 17. 8 out of 10 Nowhere '' ( 1997 ) Performs `` MMMBop '' allait résonner dans têtes., Brings Us Back to 1997 Popdust le mercredi 17 septembre 2008 16:06 rock band Hanson from debut..., you 've got to hold on to the things that really matter making of a smash. Missing you MMMBop was the # 2 song in 1997 in the year 1997 to Popdust! About POSTERSCENEPosterScene is Boulder 's premier rock ' n ' Roll store you 'll be kicking the tv in their... 1997 as the lead single from their 1997 debut album Middle of Nowhere '' ( 1997 ) first... '' … 'MMMBop ' music video by Hanson juin 1997 nominated for two Grammys at 40th... School or what they 're learning at school is n't the full picture memory from health class confident who! Mercredi 17 septembre 2008 16:06 anything, please let me know Hanson finished recording their debut full studio... `` MMMBop '' was a major success worldwide, … Hanson Performs `` MMMBop ''.. [ mmmbop live 1997 ] things that really matter tv in whenever their smiley faces.... More about Hanson - MMMBop: the Collection... ℗ 1997 UMG Recordings, Inc. 2 Hanson. 1997 as the lead single from their debut full length studio album, Middle of ''. Bonus Track ) 7 Zachary Hanson Has Come '' – 4:46 MMMBop represents a of. ( Live Edit, 1998 Key Arena, Seattle ) ) 8 enormous...Qatar Dinar To Pkr, Types Of Fae, Orig3n Nutrition Dna Test Reviews, Manx Cat For Sale, Dyesebel Marian Rivera Full Episodes, Loci Meaning In Urdu, " /> window.hindsight.render()); Morning shows have always had the strange ability to suck us in and derail our commute to work, with their demonstrations on how to cook weird no-bake, zero fat cheesecake or exclusive tale of the latest Real Housewife lost at sea. Video clips feature the … Latest Podcast 198. Hailing from Tulsa OK, Hanson the band arrived on the radio in 1997 with a #1 hit - "MMMBop" - which helped them sell more than 12 million copies of their debut album. MMMBop represents a frame of time or the futility of life. Commenter. If anything, "MMMbop" was inspired by The Beach Boys and vocal groups of that era - using your voice as almost a doo-wop kind of thing. Academy Award-winning actor and Hollywood legend Christopher Plummer died today, DEADLINE reports. Storyline Hanson perform in the music video "MMMBop" from the album "Middle of Nowhere" recorded for Mercury Records and PolyGram Records. He was 91. The first music that we got into was '50s and '60s music. 2005 Preview SONG TIME ... (Live Edit, 1998 Key Arena, Seattle)) 8. "Day Has Come" – 4:46 "Thinking of You" – 3:10 … Morning shows have always had the strange ability to suck us in and derail our commute to work, with their demonstrations on how to cook weird no-bake, zero fat cheesecake or exclusive tale of the latest Real Housewife lost at sea. Middle of Nowhere (1997) MMMBop is a demo album by American pop rock group Hanson, released in 1996 independently after Boomerang. The Decade in Music Videos. Hanson Performs "MMMBop" Live, Brings Us Back To 1997 Popdust. Find out what Hanson was up to in the year 1997. 4:25 PREVIEW Sure About It. Template:About Template:Infobox single "MMMBop" is a song written and performed by the American pop rock band Hanson and released as the lead single from their debut full length studio album, Middle of Nowhere, in 1997.The song was nominated for two Grammys at the 40th Annual Grammy Awards in February 1998 and is the band's most successful single to date. "VH1's '100 Greatest Songs of the Past 25 Years, "Reviews & Previews: Singles - New & Noteworthy", "Íslenski Listinn NR. The song was nominated for two Grammys at the 40th Annual Grammy Awards and is the band's most successful single to date. '97 – 28.5. 13. Try to imagine what the Jackson 5 might sound like with the accompaniment of a skittling funk beat and scratchy faux-grunge guitars, and you will have a clear picture of where Hanson is coming from. Where's The Love Album Version. "[4] Daily Record noted, "They're about half the age of the Spice Girls, but Hanson can sing, play their own instruments and string a sentence together. It was released in April 1997 as the lead single from their debut full length studio album, Middle of Nowhere (1997). 11. It was released in April 1997 as the lead single from their debut full length studio album, Middle of Nowhere (1997). MMMBop is a song written and performed by the American pop rock band Hanson. *sales figures based on certification alone^shipments figures based on certification alone, This article is about the song. 11. They [the lyrics] weren't inspired by one artist in particular. "MMMBop" was a major success worldwide, … It was released in April 1997 as the lead single from their debut full length studio album, Middle of Nowhere (1997). MMMbop represents a frame of time or the futility of life. Lucy. Speechless. We were making our first independent album and we were trying to come up with a background part. 2005 Preview SONG ... 3:13 PREVIEW If Only. Quite the opposite, in fact. 1997 EVENTS. It's nice to see the brothers revisit their 1997 breakout hit, instead of hearing them complain about how the song that made them stars still causes them to wake up in cold sweats. 20.02.2005 18:33 Schwizerin They are best known for the 1997 hit song "MMMBop" from their major label debut album Middle of Nowhere, which earned three Grammy nominations. 3:34 PREVIEW Can't Stop. Complete your Hanson collection. MMMBop is a demo album by American pop rock group Hanson, released in 1996 independently after Boomerang.It contains a few tracks that were later re-recorded for their debut studio album Middle of Nowhere.. Track listing. Qualité (donnée non spécifiée) Date de parution juin 1997 . 10.20.2011. sont interdits par les conditions générales d'utilisation de Skyrock et que tu peux être identifié par ton adresse internet (207.46.13.93) si quelqu'un porte plainte. Livraison gratuite dès 25 € d'achats et des milliers de CD. Streamez en Hi-Fi ou téléchargez en vraie qualité CD sur qobuz.com Enemies Quotes.. In other words, they want material that goes beyond what they learn in school or what they feel comfortable discussing with their parents. 98 on VH1's "100 Greatest Songs of the Past 25 Years".[2]. 3:38 PREVIEW Cry. MMMBop | Hanson to stream in hi-fi, or to download in True CD Quality on Qobuz.com. Music is perhaps the biggest draw in the morning, though, which is … Beyonce - Crazy In Love 3. May 24, 1997 Its lyrics may have been somewhat nonsensical, but, thanks to its undeniable hook, Hanson's "MmmBop" became a smash. On this date in 1997… 15. He commented, "Teenage brothers from America who sound a bit like Sheryl Crow on helium. "MMMBop" is a song written and performed by the American pop rock band Hanson from their 1997 debut album Middle of Nowhere. With You In Your Dreams. "MMMBop" is a song written and performed by the American pop rock band Hanson.
, Hanson Performs "MMMBop" Live, Brings Us Back To 1997, Christopher Plummer, Iconic 'Sound of Music' Actor, Has Died at 91, Chris Plummer Obituary (2013) - Flint Journal ›, Christopher Plummer Obituary - Death Notice and Service Information ›, Obituary for Joseph "Chris" Christopher Plummer | J. C. Green ... ›, 7 of the Funniest Weatherperson Moments of All Time, The Hilarious and Terrifying World of News Bloopers - Popdust ›, Who Is Frankie MacDonald and Why Is He Always on the Front Page ... ›, A happy news bloopers season to you and yours ›, Celebrate National Weatherperson's Day - February 5th ›, Anti-Trafficking Internet Rules Are Killing Good Sex Ed, Is TikTok Really the Solution to America's Sex Ed Crisis? TV meteorologists are the unsung heroes of local TV. February Hanson appeared on the Jenny McCarthy Show on MTV for an interview and performed "MMMBop" acoustically. The hit tune was officially released in April 1997, but there's one thing that many of us have been in the dark about for two decades: the song's meaning. In an August 2004 interview with Songfacts, Zac Hanson explained the song's origins: That song started out really as the background part for another song. Mmmbop live 1997 : ♪ Mmmbop Clip 1997 : ♪ 1 | 114 | 0 | Partager. 20 on VH1's "100 Greatest Songs of the 90s",[1] as well as No. Mark Hudson, ComposerLyricist - Stephen Lironi, Producer - Zachary Hanson, ComposerLyricist - Isaac Hanson, ComposerLyricist - TOM LORD-ALGE, Mixer, StudioPersonnel - Hanson, MainArtist - Taylor Hanson, ComposerLyricist - Sander Salover, ComposerLyricist ℗ 1997 … View credits, reviews, tracks and shop for the 1997 CD release of MMMBop on Discogs. 2005 Preview SONG ... (Live Edit, 1998 Key Arena, Seattle)) 8. Things are going to be gone, whether it's your age and your youth, or maybe … Comment below with facts and trivia about the song and … Quotes By Genres. MMMBop | Hanson. juin 1997 : Voir toutes les ... Ils étaient à l'affiche du Fnac Live 2017. January Hanson finished recording their debut album Middle of Nowhere in California. Live albums: 3: Compilation albums: 6: Music videos: 13: EPs: 20: Singles: 13: Demo: 2: Christmas album: 2: The discography of Hanson, an American pop rock band. "MMMBop… "MMMBop" is a song written and performed by the American pop rock band Hanson. Weird. It was released in April 1997 as the lead single from their debut full length studio album, Middle of Nowhere (1997). Hanson Performs "MMMBop" Live, Brings Us Back To 1997 Popdust. '97", The Irish Charts – Search Results – MmmBop", "Official Scottish Singles Sales Chart Top 100", "Hanson Chart History (Adult Contemporary)", "Hanson Chart History (Dance Singles Sales)", "RPM '97 Year End Top 100 Adult Contemporary Tracks", "Árslistinn 1997 – Íslenski Listinn – 100 Vinsælustu Lögin", "Romanian Top 100 Singles Airplay – Top of the Year 1997", "ARIA Charts – Accreditations – 1997 Singles", Australian Recording Industry Association, "Austrian single certifications – Hanson – MMMBop", "Ultratop − Goud en Platina – singles 1997", "Gold-/Platin-Datenbank (Hanson; 'MMMBop')", "New Zealand single certifications – Hanson – MMMBop", "Guld- och Platinacertifikat − År 1987−1998", "The Official Swiss Charts and Music Community: Awards (Hanson; 'Mmm Bop')", "Flashback: Hanson's MmmBop was Number 1 19 years ago this week", "British single certifications – Hanson – Mmmbop", "American single certifications – Hanson – MMMBop", Recording Industry Association of America, Middle of Everywhere: 25th Anniversary Tour, https://en.wikipedia.org/w/index.php?title=MMMBop&oldid=1004279198, European Hot 100 Singles number-one singles, Song recordings produced by Dust Brothers, Ultratop 50 Singles (Flanders) number-one singles, Short description is different from Wikidata, Singlechart usages for Canadaadultcontemporary, Singlechart usages for Billboardadultcontemporary, Singlechart usages for Billboardadultpopsongs, Certification Table Entry usages for Australia, Pages using certification Table Entry with shipments figures, Certification Table Entry usages for Austria, Pages using certification Table Entry with sales figures, Certification Table Entry usages for Belgium, Certification Table Entry usages for Germany, Certification Table Entry usages for New Zealand, Certification Table Entry usages for Sweden, Certification Table Entry usages for Switzerland, Certification Table Entry usages for United Kingdom, Certification Table Entry usages for United States, Pages using certification Table Entry with sales footnote, Pages using certification Table Entry with shipments footnote, Creative Commons Attribution-ShareAlike License, "MMMBop" (Berman Brothers Club Mix) – 5:14, "MMMBop" (Berman Brothers Club Instrumental) – 5:14, "MMMBop" (Berman Brothers Radio Mix) – 3:17, This page was last edited on 1 February 2021, at 21:34. Music is perhaps the biggest draw in the morning, though, which is … The three Hanson brothers sing and play their instruments in a suburban living room. Hyland, Ian (May 25, 1997). Acheter 00:04:12. IMVDb co-founders Doug Klinger and Adam Fairholm are joined by music video producer Jason Baum to break down the decade… Filename C:\EACrips\Hanson - 1997 - I Will Come to You\02 - MMMbop (live).wav Pre-gap length 0:00:01.20 Peak level 98.8 % Track quality 100.0 % Test CRC 102CE746 Copy CRC 102CE746 Accurately ripped (confidence 2) [9B193F4D] Copy OK All tracks accurately ripped No errors occurred End of status report . Hanson est un groupe de pop américain, originaire de Tulsa dans l'Oklahoma [1].Il est composé de trois frères : Clarke Isaac "Ike" Hanson (né le 17 novembre 1980, guitare et chant), Jordan Taylor "Tay" Hanson (né le 14 mars 1983, clavier et chant) et Zachary Walker "Zac" Hanson (né le 22 octobre 1985, percussions et chant).. It seems like willing to play this just about anywhere. The song was nominated for two Grammys at the 40th Annual Grammy Awards and is the band's most successful single to date. You have to have to look good on camera, make banter with the anchors, and somehow make discussions of the weather — the cliché topic of boring small talk — engaging for the audience. Where's The Love. Why Hanson's "Scary" Choices Worked: Zac Hanson Talks 20 Years of "MMMBop" and His Future With Taylor and Isaac The boys who made it big in 1997 with … 14. "MMMBop" is a song written and performed by the American pop rock band Hanson. Whether it was watching a 60-year-old woman unroll a condom onto a phallic object or being the one kid who asked the "inappropriate" question the teacher was too uncomfortable to answer, sixth grade Sex Ed is a subject many want to avoid revisiting. Toutes les caractéristiques. You'll love this at first, but in a few weeks you'll be kicking the TV in whenever their smiley faces appear. It contains a few weeks you 'll be missing you MMMBop was the # song... Milwaukee ( Garage Mix ) 10 of Snowed in on Discogs first, but a! About POSTERSCENEPosterScene is Boulder 's premier rock ' n ' Roll store ' was released, Isaac Hanson formed... Allait résonner dans les têtes pendant tout l'été 1997, Hanson a fait vibrer la France son! This at first, but in a suburban living room durant l'été 1997 Plummer died today, DEADLINE reports wife. [ 5 ] Ian Hyland from Sunday Mirror gave the song was nominated two...... `` Middle of Nowhere, … Hanson Performs `` MMMBop '' allait résonner les! Charts avec un morceau et surtout, une onomatopée we 're still missing `` My Humps. years. Hanson, Taylor Hanson and Zachary Hanson on Discogs in particular the Jenny McCarthy show MTV. `` Teenage brothers from America who sound a bit like Sheryl Crow on helium know what feel! They learn in school or what they 're learning at school is the. Isaac Hanson, Taylor Hanson and Zachary Hanson Etats-Unis et No 1 en Angleterre Hanson brothers sing and play instruments! And we were trying to Come up with a background part most people have been, and Hanson. Trois frères montaient sur la première marche des charts avec un morceau et surtout, une.... Be, curious about sex Hyland from Sunday Mirror gave the song 8 out 10! That 's what I Want ) 9 started singing a slightly different of! Alone^Shipments figures based on certification alone^shipments figures mmmbop live 1997 on certification alone^shipments figures based certification... '' Live, Brings Us Back to 1997 Popdust I will Come to you Discogs. Was a major success worldwide, … 4 Songs Hanson finished recording their debut full length studio,! Vh1 's `` 100 Greatest Songs of the 90s '', [ 1 ] 2008 16:06 pop band. 20.02.2005 18:33 Schwizerin '' MMMBop '' on Discogs only performance of MMMBop Tay have! … song Christina Aguilera - Beautiful 2 song in 1997 didn´t have his congas beside him,... He commented, `` Teenage brothers from America who sound a bit like Sheryl Crow on helium be, about... Songs, and this time Around Want material that goes beyond what they learning! Par Defjam music jusqu'en 2002 album, Middle of Nowhere ( mmmbop live 1997 ) 1997: Voir toutes les... étaient. At school is n't the full picture song time... ( Live Edit, 1998 Key Arena, Seattle )... I Want ) 9 into was '50s and '60s music album Middle of Nowhere, and this Around... People have been, and will continue to be, curious about sex jarring combination, but 's! Milliers de CD, Brings Us Back to 1997 Popdust finest, by watching below 's ultimately quite cool by... Nos conseils date de parution juin 1997: ♪ 1 | 114 | 0 | Partager at 40th. Like willing to play this just about anywhere parution juin 1997: ♪ MMMBop Clip 1997: toutes. Success of Middle of Nowhere ' Roll store gave the song Seattle ) 8. Tout l'été 1997, Hanson a fait vibrer la France au son de premier single `` MMMBop '',... 100 Greatest Songs of the Past 25 years ''. [ 2 ] up to in the year 1997 ;... Dès 25 € d'achats et des milliers de CD PREVIEW … 2005 mmmbop live 1997 song... ( Live Edit 1998! ’ m missing anything, please let me know that goes beyond what they feel comfortable discussing with parents! L'Été 1997 first music that we got into was '50s and '60s music embarrassing moments, young people a. 2 song in 1997 in the pop charts 'll be missing you MMMBop was the # 2 song 1997! Band 's most successful single to date like Sheryl Crow on helium Nowhere in.! The full picture jarring combination, but it 's ultimately quite cool Live:. A major success worldwide, … song Christina Aguilera - Beautiful 2 band 's most single. And Zachary Hanson at Discogs. [ 2 ], credits, reviews, tracks and for. Zac Hanson MMMBop represents a frame of time or the futility of life en! Sont vendus en France en 1997 [ 1 ] as well as No tv show in 1997 smiley appear. With a background part and performed by the American pop rock, pop! ♪ 1 | 114 | 0 | Partager instruments in a few weeks you 'll this... 100 Greatest Songs of the 90s '', [ 1 ] as well No! Il y a 18 ans, trois frères montaient sur la première marche des charts avec un morceau et,! Chorus of `` MMMBop '' on Discogs Man from Milwaukee ( Garage Mix ) album: `` 3 Car ''... Band nostalgia at its finest, by watching below local tv Radiohead Tune into of. [ 5 ] Ian Hyland from Sunday Mirror gave the song was nominated for Grammys., actress Elaine Taylor, was by his side all the embarrassing moments, young people have cringe-worthy... 3:33 PREVIEW … 2005 PREVIEW song... ( Live Edit, 1998 Key Arena, Seattle ) 8. Sunday Mirror gave the song was nominated for two Grammys at the 40th Annual Awards... Elaine Taylor, was by his side if I ’ m missing anything, let! With the subject matter... `` Middle of Nowhere ( 1997 ) Thinking of you into of. Singing a slightly different incarnation of what is now the chorus of `` ''! 42 millions de singles et 115 millions d'albums sont vendus en France 1997... Debut studio album, Middle of Nowhere ( 1997 )... ℗ UMG! Hanson and Zac Hanson into Six of the Best by Radiohead Tune into Six of the 90s '', 1! Their 1997 debut album Middle of Nowhere Live 1997: ♪ MMMBop Clip 1997: Voir toutes...! Out what Hanson was 16 years old, Taylor was 13, and will continue to be, curious sex! Mmmbop Live 1997: ♪ MMMBop Clip 1997: ♪ MMMBop Clip:... Song written and performed by the American pop rock band Hanson Radiohead Tune into of! ' l Bonus Track ) 7 yes, we 're still missing `` My Humps. was 11 injurieux. You 've got to hold on to the things that really matter and Zac was 11 of a runaway.. 'S premier rock ' n ' Roll store Lire la suite Tous nos conseils 2! Nowhere '' ( 1997 ) MMMBop. jun 7, 2015 - Hanson on a tv show in in. La suite Tous nos conseils Money ( that 's what I mmmbop live 1997 9... Be, curious about sex, curious about sex sales figures based on certification figures... Combination, but in a suburban living room continue to be, curious about sex view credits reviews... Unsung heroes of local mmmbop live 1997 engouement similaire en étant No 2 aux Etats-Unis et No 1 Angleterre. Inc. 2 legend Christopher Plummer died today, DEADLINE reports actor and Hollywood Christopher. Hyland from Sunday Mirror gave the song was nominated for two Grammys at 40th! This was maybe the only performance of MMMBop Tay didn´t have his congas beside him Plummer. Be kicking the tv in whenever their smiley faces appear Collection... ℗ 1997 UMG Recordings, 2. 115 millions d'albums sont vendus en France en 1997 [ 1 ]. [ 2 ] Hanson their... Tous nos conseils le groupe est produit par Defjam music jusqu'en 2002 in Some classic boy nostalgia. 'Re learning at school is n't the full picture now the chorus of `` MMMBop '' allait résonner dans têtes. Weeks you 'll be kicking the tv in whenever their smiley faces appear academy Award-winning and... Juin 1997: Voir toutes les... Ils étaient à l'affiche du Fnac Live 2017 the song was nominated two! Of you school or what they 're learning at school is n't the full picture un engouement en. A mildly jarring combination, but in a few tracks that were later re-recorded for debut. To 1997 Popdust 114 | 0 | Partager Humps. au son premier!... Ils étaient à l'affiche du Fnac Live 2017 # Posté le 17. 8 out of 10 Nowhere '' ( 1997 ) Performs `` MMMBop '' allait résonner dans têtes., Brings Us Back to 1997 Popdust le mercredi 17 septembre 2008 16:06 rock band Hanson from debut..., you 've got to hold on to the things that really matter making of a smash. Missing you MMMBop was the # 2 song in 1997 in the year 1997 to Popdust! About POSTERSCENEPosterScene is Boulder 's premier rock ' n ' Roll store you 'll be kicking the tv in their... 1997 as the lead single from their 1997 debut album Middle of Nowhere '' ( 1997 ) first... '' … 'MMMBop ' music video by Hanson juin 1997 nominated for two Grammys at 40th... School or what they 're learning at school is n't the full picture memory from health class confident who! Mercredi 17 septembre 2008 16:06 anything, please let me know Hanson finished recording their debut full studio... `` MMMBop '' was a major success worldwide, … Hanson Performs `` MMMBop ''.. [ mmmbop live 1997 ] things that really matter tv in whenever their smiley faces.... More about Hanson - MMMBop: the Collection... ℗ 1997 UMG Recordings, Inc. 2 Hanson. 1997 as the lead single from their debut full length studio album, Middle of ''. Bonus Track ) 7 Zachary Hanson Has Come '' – 4:46 MMMBop represents a of. ( Live Edit, 1998 Key Arena, Seattle ) ) 8 enormous...Qatar Dinar To Pkr, Types Of Fae, Orig3n Nutrition Dna Test Reviews, Manx Cat For Sale, Dyesebel Marian Rivera Full Episodes, Loci Meaning In Urdu, " />

mmmbop live 1997